Autor Wątek: DVD 064 - problem z odtworzeniem avi  (Przeczytany 2018 razy)

0 użytkowników i 1 Gość przegląda ten wątek.

michal.mazi

  • Newbie
  • *
  • Wiadomości: 1
    • Zobacz profil
DVD 064 - problem z odtworzeniem avi
« dnia: Maja 29, 2014, 19:36:33 »
Witam,
Mam duży problem z poprawnym uruchomieniem plikow avi na odtwarzaczu. Niektore z nich "skacza" tak ze nie da sie ogladac, inne nie dzialaja wcale z informacja, ze jest niepoprawny format pliku.
Dla przykladu plik:
  Duration: 01:28:13.08, start: 0.000000, bitrate: 1643 kb/s
    Stream #0.0: Video: mpeg4 (Simple Profile), yuv420p, 640x264 [PAR 1:1 DAR 80:33], 23.98 fps, 23.98 tbr, 23.98 tbn, 24k tbc
    Stream #0.1: Audio: mp3, 22050 Hz, stereo, s16, 128 kb/s

nie jest odtwarzany ze wzgledu na niepoprawny format pliku.

Plik:
  Duration: 01:48:50.35, start: 0.000000, bitrate: 900 kb/s
    Stream #0.0: Video: mpeg4 (Advanced Simple Profile), yuv420p, 640x272 [PAR 1:1 DAR 40:17], 23.98 fps, 23.98 tbr, 23.98 tbn, 23.98 tbc
    Stream #0.1: Audio: mp3, 44100 Hz, 2 channels, s16, 114 kb/s

nie odtwarza sie plynnie, obraz bardzo mocno skacze.

nie oczekuje ze odtwarzacz bedzie dzialal poprawnie ze wszystkim, ale chcialbym sie dowiedziec w jakim dokladnie formacie powinienem przekodowac plik by dzialal on poprawnie. Byc moze ktos z uzytkownikow uzywa ffmpeg do przekodowywania plikow i podpowie mi z jakimi parametrami dokonuje transkodowania. Byc moze takiej pomocy udzieli mi wsparcie techniczne Manty. Licze na pomoc :)